Click here for post
 

[center][img]http://i.imgur.com/Nrb6QyE.jpg[/img]

 
[color=blue][size=4][b]A.Monster.Calls.2016.DVDScr.XVID.AC3.HQ.Hive-CM8[/b][/size][/color]

Thx Hive

CM8 Doing It Right The First Time 

Source: Screener Thanks m8

Notes:
Another Qualityrelease, free for the public now, great movie

Encode:
Quality was very nice, fixed rgb and brightness
removed all watermarks from video and audio, safety first.
enjoy


Video: 720x304 @bitrate 1600 2pass
Audio: English AC3 Stereo
Sample: yes included

PS: star wars anyone, even the internal would do me? animation sing?
    

http://www.imdb.com/title/tt3416532/


Trailer: https://www.youtube.com/watch?v=R2Xbo-irtBA

General
Complete name                  : A.Monster.Calls.2016.DVDScr.XVID.AC3.HQ.Hive-CM8.avi
Format                         : AVI
Format/Info                    : Audio Video Interleave
File size                      : 1.42 GiB
Duration                       : 1h 48mn
Overall bit rate               : 1 875 Kbps
Writing application            : Nandub v1.0rc2
Writing library                : Nandub build 1853/release

Video
ID                             : 0
Format                         : MPEG-4 Visual
Format profile                 : Advanced Simple@L5
Format settings, BVOP          : 2
Format settings, QPel          : Yes
Format settings, GMC           : No warppoints
Format settings, Matrix        : Default (H.263)
Muxing mode                    : Packed bitstream
Codec ID                       : XVID
Codec ID/Hint                  : XviD
Duration                       : 1h 48mn
Bit rate                       : 1 607 Kbps
Width                          : 720 pixels
Height                         : 304 pixels
Display aspect ratio           : 2.35:1
Frame rate                     : 29.970 fps
Color space                    : YUV
Chroma subsampling             : 4:2:0
Bit depth                      : 8 bits
Scan type                      : Progressive
Compression mode               : Lossy
Bits/(Pixel*Frame)             : 0.245
Stream size                    : 1.21 GiB (86%)
Writing library                : XviD 1.2.1 (UTC 2008-12-04)

Audio
ID                             : 1
Format                         : AC-3
Format/Info                    : Audio Coding 3
Mode extension                 : CM (complete main)
Format settings, Endianness    : Big
Codec ID                       : 2000
Duration                       : 1h 48mn
Bit rate mode                  : Constant
Bit rate                       : 256 Kbps
Channel(s)                     : 2 channels
Channel positions              : Front: L R
Sampling rate                  : 48.0 KHz
Bit depth                      : 16 bits
Compression mode               : Lossy
Stream size                    : 198 MiB (14%)
Alignment                      : Split accross interleaves
Interleave, duration           : 33 ms (1.00 video frame)
Interleave, preload duration   : 500 ms


Screens 

[img]http://i.imgur.com/EKnKKHF.png[/img]
[img]http://i.imgur.com/a4LfuTT.png[/img]
[img]http://i.imgur.com/aQk7PO6.png[/img]
[img]http://i.imgur.com/H4ueX9c.png[/img]
[img]http://i.imgur.com/41pNqZA.png[/img]


Plot

A boy seeks the help of a tree monster to cope with his single mother's terminal illness.


Cast overview, first billed only: 

Lewis MacDougall	...	Conor
Sigourney Weaver	...	Grandma
Felicity Jones		...	Mum
Toby Kebbell		...	Dad
Ben Moor		...	Mr. Clark
James Melville		...	Harry
Oliver Steer		...	Sully
Dominic Boyle		...	Anton
Jennifer Lim		...	Miss Kwan
Max Gabbay		...	Steven
Morgan Symes		...	Lawyer
Max Golds		...	5-Year-Old Connor
Frida Palsson		...	Lily's Mum
Wanda Opalinska		...	Female Nurse
Patrick Taggart		...	Teacher



LOOKING FOR SCREENER GUYS msg us cm8crew@hushmail.com

COME FIND US WE DONT BITE[/center]