Click here for post
 

Lucas.1986.720p.BluRay.x264-x0r.mkv


http://www.imdb.com/title/tt0091445/


Trailer: https://www.youtube.com/watch?v=NMykRlSX1Dg

Trailer: https://www.youtube.com/watch?v=BNJj49xaZ14

(Charlie Sheen is ACCUSED of raping co-star Corey Haim during filming this picture.)


A socially inept fourteen year old experiences heartbreak for the first time when his two best friends -- Cappie, an older-brother figure, and Maggie, the new girl with whom he is in love -- fall for each other.

A short sample is included for evaluation.
===================================================

General

Complete name                            : Lucas.1986.720p.BluRay.x264-x0r.mkv
Format                                   : Matroska
Format version                           : Version 4 / Version 2
File size                                : 2.09 GiB
Duration                                 : 1h 39mn
Overall bit rate                         : 3 009 Kbps
Movie name                               : Lucas.1986.720p.BluRay.x264-x0r
Encoded date                             : UTC 2017-11-09 20:12:25
Writing application                      : mkvmerge v8.1.0 ('Psychedelic Postcard') 32bit
Writing library                          : libebml v1.3.1 + libmatroska v1.4.2
DURATION                                 : 01:36:33.664000000
NUMBER_OF_FRAMES                         : 1129
NUMBER_OF_BYTES                          : 41698
_STATISTICS_WRITING_APP                  : mkvmerge v8.1.0 ('Psychedelic Postcard') 32bit
_STATISTICS_WRITING_DATE_UTC             : 2017-11-09 20:12:25
_STATISTICS_TAGS                         : BPS DURATION NUMBER_OF_FRAMES NUMBER_OF_BYTES

Video
ID                                       : 1
Format                                   : AVC
Format/Info                              : Advanced Video Codec
Format profile                           : High@L4.0
Format settings, CABAC                   : Yes
Format settings, ReFrames                : 8 frames
Codec ID                                 : V_MPEG4/ISO/AVC
Duration                                 : 1h 39mn
Bit rate                                 : 2 560 Kbps
Width                                    : 1 280 pixels
Height                                   : 720 pixels
Display aspect ratio                     : 16:9
Frame rate mode                          : Constant
Frame rate                               : 24.000 fps
Color space                              : YUV
Chroma subsampling                       : 4:2:0
Bit depth                                : 8 bits
Scan type                                : Progressive
Bits/(Pixel*Frame)                       : 0.116
Stream size                              : 1.74 GiB (83%)
Writing library                          : x264 core 130 r2273 b3065e6

Language                                 : English
Default                                  : Yes
Forced                                   : No
Color primaries                          : BT.709
Transfer characteristics                 : BT.709
Matrix coefficients                      : BT.709

Audio
ID                                       : 2
Format                                   : AC-3
Format/Info                              : Audio Coding 3
Mode extension                           : CM (complete main)
Format settings, Endianness              : Big
Codec ID                                 : A_AC3
Duration                                 : 1h 39mn
Bit rate mode                            : Constant
Bit rate                                 : 448 Kbps
Channel(s)                               : 6 channels
Channel positions                        : Front: L C R, Side: L R, LFE
Sampling rate                            : 48.0 KHz
Bit depth                                : 16 bits
Compression mode                         : Lossy
Stream size                              : 319 MiB (15%)
Title                                    : Surround
Language                                 : English
Default                                  : Yes
Forced                                   : No

Text
ID                                       : 3
Format                                   : UTF-8
Codec ID                                 : S_TEXT/UTF8
Codec ID/Info                            : UTF-8 Plain Text
Language                                 : English
Default                                  : No
Forced                                   : No

Menu
00:00:00.000                             : en:Chapter 1
00:10:11.317                             : en:Chapter 2
00:21:57.981                             : en:Chapter 3
00:33:09.193                             : en:Chapter 4
00:41:57.179                             : en:Chapter 5
00:49:57.075                             : en:Chapter 6
01:01:37.400                             : en:Chapter 7
01:10:30.307                             : en:Chapter 8
01:20:43.962                             : en:Chapter 9
01:29:49.507                             : en:Chapter 10
01:37:19.665                             : en:Chapter 11