Click here for post
 

Just beginning this process so please NO flames. 

My personal preference is usually movies below 1GB & I'm always on the lookout for films from Europe
(Brit, Sweden, Norway, Finland, Italy, France, Denmark,Germany, Spain) provided they have english
subtitles. Aussie & NZ films are usually watchable.

Help the usenet community by learning how to post to your favorite newsgroup.

not my rip so don't know what the ORIGINAL SOURCE was. 

That's it, "Fill Your Boots....."

hard coded english subtitles in non-english speech

https://www.imdb.com/title/tt1490678/?ref_=fn_al_tt_2

General
Complete name                            : Granito.2011.avi
Format                                   : AVI
Format/Info                              : Audio Video Interleave
File size                                : 699 MiB
Duration                                 : 1 h 43 min
Overall bit rate mode                    : Variable
Overall bit rate                         : 944 kb/s
Writing application                      : VirtualDubMod 1.5.10.2 (build 2540/release)
Writing library                          : VirtualDubMod build 2540/release

Video
ID                                       : 0
Format                                   : MPEG-4 Visual
Format profile                           : Advanced Simple@L5
Format settings                          : BVOP2
Format settings, BVOP                    : 2
Format settings, QPel                    : No
Format settings, GMC                     : No warppoints
Format settings, Matrix                  : Default (H.263)
Muxing mode                              : Packed bitstream
Codec ID                                 : XVID
Codec ID/Hint                            : XviD
Duration                                 : 1 h 43 min
Bit rate                                 : 816 kb/s
Width                                    : 640 pixels
Height                                   : 352 pixels
Display aspect ratio                     : 16:9
Frame rate                               : 23.976 (24000/1001) FPS
Color space                              : YUV
Chroma subsampling                       : 4:2:0
Bit depth                                : 8 bits
Scan type                                : Progressive
Compression mode                         : Lossy
Bits/(Pixel*Frame)                       : 0.151
Stream size                              : 604 MiB (86%)
Writing library                          : XviD 64

Audio
ID                                       : 1
Format                                   : MPEG Audio
Format version                           : Version 1
Format profile                           : Layer 3
Format settings                          : Joint stereo / MS Stereo
Codec ID                                 : 55
Codec ID/Hint                            : MP3
Duration                                 : 1 h 43 min
Bit rate mode                            : Variable
Bit rate                                 : 116 kb/s
Nominal bit rate                         : 128 kb/s
Channel(s)                               : 2 channels
Sampling rate                            : 48.0 kHz
Frame rate                               : 41.667 FPS (1152 SPF)
Compression mode                         : Lossy
Stream size                              : 85.7 MiB (12%)
Alignment                                : Aligned on interleaves
Interleave, duration                     : 24  ms (0.58 video frame)
Interleave, preload duration             : 159  ms
Writing library                          : LAME3.98r
Encoding settings                        : -m j -V 4 -q 2 -lowpass 17 --abr 128