Click here for post
 

Just beginning this process so please NO flames. 

My personal preference is usually movies below 1GB & I'm always on the lookout for films from Europe
(Brit, Sweden, Norway, Finland, Italy, France, Denmark,Germany, Spain) provided they have english
subtitles. Aussie & NZ films are usually watchable.

Help the usenet community by learning how to post to your favorite newsgroup.

not my rip so don't know what the ORIGINAL SOURCE was. 

That's it, "Fill Your Boots....."

hard coded english subtitles

https://www.imdb.com/title/tt2072137/?ref_=nv_sr_1

General
Unique ID                                : 210585556062308529341791144977906134036 (0x9E6D4D861BC851E2A23203BC52C1EC14)
Complete name                            : How We Played the Revolution.2012.mkv
Format                                   : Matroska
Format version                           : Version 4 / Version 2
File size                                : 753 MiB
Duration                                 : 1 h 9 min
Overall bit rate                         : 1 516 kb/s
Encoded date                             : UTC 2016-10-04 10:17:48
Writing application                      : mkvmerge v8.8.0 ('Wind at my back') 64bit
Writing library                          : libebml v1.3.3 + libmatroska v1.4.4

Video
ID                                       : 1
Format                                   : AVC
Format/Info                              : Advanced Video Codec
Format profile                           : High@L3.1
Format settings                          : CABAC / 5 Ref Frames
Format settings, CABAC                   : Yes
Format settings, RefFrames               : 5 frames
Codec ID                                 : V_MPEG4/ISO/AVC
Duration                                 : 1 h 9 min
Bit rate                                 : 1 378 kb/s
Width                                    : 720 pixels
Height                                   : 404 pixels
Display aspect ratio                     : 16:9
Frame rate mode                          : Constant
Frame rate                               : 29.970 (30000/1001) FPS
Color space                              : YUV
Chroma subsampling                       : 4:2:0
Bit depth                                : 8 bits
Scan type                                : Progressive
Bits/(Pixel*Frame)                       : 0.158
Stream size                              : 685 MiB (91%)
Language                                 : English
Default                                  : Yes
Forced                                   : No
Color range                              : Limited
Matrix coefficients                      : BT.709

Audio
ID                                       : 2
Format                                   : AAC
Format/Info                              : Advanced Audio Codec
Format profile                           : LC
Codec ID                                 : A_AAC-2
Duration                                 : 1 h 9 min
Bit rate                                 : 136 kb/s
Channel(s)                               : 2 channels
Channel positions                        : Front: L R
Sampling rate                            : 48.0 kHz
Frame rate                               : 46.875 FPS (1024 SPF)
Compression mode                         : Lossy
Delay relative to video                  : 19 ms
Stream size                              : 67.4 MiB (9%)
Language                                 : Lithuanian
Default                                  : Yes
Forced                                   : No