Click here for post
 

Just beginning this process so please NO flames. 

My personal preference is usually movies below 1GB & I'm always on the lookout for films from Europe
(Brit, Sweden, Norway, Finland, Italy, France, Denmark,Germany, Spain) provided they have english
subtitles. Aussie & NZ films are usually watchable.

Help the usenet community by learning how to post to your favorite newsgroup.

not my rip so don't know what the ORIGINAL SOURCE was. 

That's it, "Fill Your Boots....."

https://www.imdb.com/title/tt0949817/?ref_=fn_al_tt_1

General
Complete name                            : Hooligan.1985.avi
Format                                   : AVI
Format/Info                              : Audio Video Interleave
File size                                : 350 MiB
Duration                                 : 51 min 16 s
Overall bit rate mode                    : Variable
Overall bit rate                         : 954 kb/s
Writing application                      : VirtualDubMod 1.5.10.1 (build 2439/release)
Writing library                          : VirtualDubMod build 2439/release

Video
ID                                       : 0
Format                                   : MPEG-4 Visual
Format profile                           : Advanced Simple@L5
Format settings                          : BVOP2
Format settings, BVOP                    : 2
Format settings, QPel                    : No
Format settings, GMC                     : No warppoints
Format settings, Matrix                  : Default (H.263)
Muxing mode                              : Packed bitstream
Codec ID                                 : XVID
Codec ID/Hint                            : XviD
Duration                                 : 51 min 16 s
Bit rate                                 : 817 kb/s
Width                                    : 576 pixels
Height                                   : 432 pixels
Display aspect ratio                     : 4:3
Frame rate                               : 25.000 FPS
Color space                              : YUV
Chroma subsampling                       : 4:2:0
Bit depth                                : 8 bits
Scan type                                : Progressive
Compression mode                         : Lossy
Bits/(Pixel*Frame)                       : 0.131
Stream size                              : 300 MiB (86%)
Writing library                          : XviD 1.0.3 (UTC 2004-12-20)

Audio
ID                                       : 1
Format                                   : MPEG Audio
Format version                           : Version 1
Format profile                           : Layer 3
Format settings                          : Dual mono
Codec ID                                 : 55
Codec ID/Hint                            : MP3
Duration                                 : 51 min 16 s
Bit rate mode                            : Variable
Bit rate                                 : 128 kb/s
Channel(s)                               : 2 channels
Sampling rate                            : 48.0 kHz
Frame rate                               : 41.667 FPS (1152 SPF)
Compression mode                         : Lossy
Stream size                              : 45.7 MiB (13%)
Alignment                                : Aligned on interleaves
Interleave, duration                     : 24  ms (0.60 video frame)
Interleave, preload duration             : 533  ms
Writing library                          : LAME3.96r
Encoding settings                        : -m d -V 4 -q 3 -lowpass 17.5 --abr 128