Click here for post
 

Just beginning this process so please NO flames. 

My personal preference is usually movies below 1GB & I'm always on the lookout for films from Europe
(Brit, Sweden, Norway, Finland, Italy, France, Denmark,Germany, Spain) provided they have english
subtitles. Aussie & NZ films are usually watchable.

Help the usenet community by learning how to post to your favorite newsgroup.

not my rip so don't know what the ORIGINAL SOURCE was. 

That's it, "Fill Your Boots....."

english subtitles idx/sub files

https://www.imdb.com/title/tt1954299/?ref_=fn_al_tt_1

General
Complete name                            : I Am Bruce Lee.2011.avi
Format                                   : AVI
Format/Info                              : Audio Video Interleave
File size                                : 699 MiB
Duration                                 : 1 h 30 min
Overall bit rate mode                    : Variable
Overall bit rate                         : 1 083 kb/s

Video
ID                                       : 0
Format                                   : MPEG-4 Visual
Format profile                           : Advanced Simple@L5
Format settings                          : BVOP1
Format settings, BVOP                    : 1
Format settings, QPel                    : No
Format settings, GMC                     : No warppoints
Format settings, Matrix                  : Default (H.263)
Codec ID                                 : XVID
Codec ID/Hint                            : XviD
Duration                                 : 1 h 30 min
Bit rate                                 : 930 kb/s
Width                                    : 640 pixels
Height                                   : 352 pixels
Display aspect ratio                     : 16:9
Frame rate                               : 25.000 FPS
Color space                              : YUV
Chroma subsampling                       : 4:2:0
Bit depth                                : 8 bits
Scan type                                : Progressive
Compression mode                         : Lossy
Bits/(Pixel*Frame)                       : 0.165
Stream size                              : 600 MiB (86%)
Writing library                          : XviD 1.2.1 (UTC 2008-12-04)

Audio
ID                                       : 1
Format                                   : MPEG Audio
Format version                           : Version 1
Format profile                           : Layer 3
Format settings                          : Joint stereo
Codec ID                                 : 55
Codec ID/Hint                            : MP3
Duration                                 : 1 h 30 min
Bit rate mode                            : Variable
Bit rate                                 : 140 kb/s
Nominal bit rate                         : 160 kb/s
Channel(s)                               : 2 channels
Sampling rate                            : 48.0 kHz
Frame rate                               : 41.667 FPS (1152 SPF)
Compression mode                         : Lossy
Stream size                              : 90.2 MiB (13%)
Alignment                                : Aligned on interleaves
Interleave, duration                     : 24  ms (0.60 video frame)
Interleave, preload duration             : 252  ms
Title                                    : lee-en
Writing library                          : LAME3.99r
Encoding settings                        : -m j -V 4 -q 2 -lowpass 17.5 --abr 160