Click here for post
 

Help the usenet community by learning how to post to your favorite newsgroup.

not my rip so don't know what the ORIGINAL SOURCE was. 

That's it, "Fill Your Boots....."

https://www.imdb.com/title/tt1566591/?ref_=fn_al_tt_1

General
Complete name                            : Magic and Bird.2010.avi
Format                                   : AVI
Format/Info                              : Audio Video Interleave
File size                                : 703 MiB
Duration                                 : 1 h 27 min
Overall bit rate mode                    : Variable
Overall bit rate                         : 1 118 kb/s
Movie name                               : Magic.and.Bird.2010.DVDRip.XViD-VH-PROD
Director                                 : j VH-PROD x
Subject                                  : Magic.and.Bird.2010.DVDRip.XViD-VH-PROD
Writing application                      : Nandub v1.0rc2
Writing library                          : Nandub build 1853/release

Video
ID                                       : 0
Format                                   : MPEG-4 Visual
Format profile                           : Advanced Simple@L5
Format settings                          : BVOP2
Format settings, BVOP                    : 2
Format settings, QPel                    : No
Format settings, GMC                     : No warppoints
Format settings, Matrix                  : Default (H.263)
Muxing mode                              : Packed bitstream
Codec ID                                 : XVID
Codec ID/Hint                            : XviD
Duration                                 : 1 h 27 min
Bit rate                                 : 968 kb/s
Width                                    : 576 pixels
Height                                   : 320 pixels
Display aspect ratio                     : 16:9
Frame rate                               : 23.976 (24000/1001) FPS
Color space                              : YUV
Chroma subsampling                       : 4:2:0
Bit depth                                : 8 bits
Scan type                                : Progressive
Compression mode                         : Lossy
Bits/(Pixel*Frame)                       : 0.219
Stream size                              : 608 MiB (87%)
Writing library                          : XviD 64

Audio
ID                                       : 1
Format                                   : MPEG Audio
Format version                           : Version 1
Format profile                           : Layer 3
Format settings                          : Joint stereo / MS Stereo
Codec ID                                 : 55
Codec ID/Hint                            : MP3
Duration                                 : 1 h 27 min
Bit rate mode                            : Variable
Bit rate                                 : 136 kb/s
Channel(s)                               : 2 channels
Sampling rate                            : 48.0 kHz
Frame rate                               : 41.667 FPS (1152 SPF)
Compression mode                         : Lossy
Stream size                              : 86.2 MiB (12%)
Alignment                                : Aligned on interleaves
Interleave, duration                     : 24  ms (0.58 video frame)
Interleave, preload duration             : 128  ms
Writing library                          : LAME3.92 
Encoding settings                        : -m j -V 4 -q 2 -lowpass 17.5 --abr 136